HD Movies - Thân tặng thành viên cá biển.

Thảo luận trong 'Cafe biển' bắt đầu bởi GHT, 25/9/11.

  1. GHT

    GHT Thích ăn phở

    Tham gia:
    18/1/06
    Bài viết:
    4,669
    Thích đã nhận:
    20,294
    Đến từ:
    Việt Nam
    IMAX 1995 The Living Sea 1440x1080
    Sự Sống Của Biển Cả (ABV)
    [​IMG]
    Mã:
    Complete name                   : IMAX 1995 The Living Sea 1440x1080 PUB.VN.wmv
    Format                           : Windows Media
    File size                        : 2.30 GiB
    Duration                         : 39mn 33s
    Overall bit rate mode            : Constant
    Overall bit rate                 : 8 317 Kbps
    Maximum Overall bit rate         : 8 470 Kbps
    Encoded date                     : UTC 2004-04-04 02:16:50.720
    Video
    ID                               : 2
    Format                           : VC-1
    Format profile                   : MP@HL
    Codec ID                         : WMV3
    Codec ID/Info                    : Windows Media Video 9
    Codec ID/Hint                    : WMV3
    Description of the codec         : Windows Media Video 9 - Professional
    Duration                         : 39mn 33s
    Bit rate mode                    : Constant
    Bit rate                         : 8 000 Kbps
    Width                            : 1 440 pixels
    Height                           : 1 080 pixels
    Display aspect ratio             : 4:3
    Frame rate                       : 23.976 fps
    Bit depth                        : 8 bits
    Scan type                        : Progressive
    Compression mode                 : Lossy
    Bits/(Pixel*Frame)               : 0.215
    Stream size                      : 2.21 GiB (96%)
    Language                         : English (US)
    Audio
    ID                               : 1
    Format                           : WMA
    Format profile                   : Pro
    Codec ID                         : 162
    Codec ID/Info                    : Windows Media Audio
    Description of the codec         : Windows Media Audio 9 Professional - 440 kbps, 48 kHz, 5.1 channel 24 bit 1-pass CBR
    Duration                         : 39mn 33s
    Bit rate mode                    : Constant
    Bit rate                         : 440 Kbps
    Channel(s)                       : 6 channels
    Sampling rate                    : 48.0 KHz
    Bit depth                        : 24 bits
    Stream size                      : 125 MiB (5%)
    Language                         : English (US)
    
    [​IMG][​IMG]
    [​IMG][​IMG]
    Mã:
    1 Link = 2.29 GB + SUB Việt
    [URL="http://www.fshare.vn/file/TR74PT38YT/"]IMAX 1995 The Living Sea 1440x1080 PUB.VN[/URL]
    The Living Sea (IMAX) HD 1080p Trailer
    [video=youtube;ekXdN_zx5J0]http://www.youtube.com/watch?v=ekXdN_zx5J0[/video]
    Pass gải nén nếu có: pub.vn

    -------------------------------------------
    GHT sưu tập tại HDVN, link teo sau 1 thời gian không chịu trách nhiệm.
    ACC vip: gianghongtu76@yahoo.com
    Pass acc vip: 123456
    ACC víp sống đến hết ngày thứ hai 26/9/2011.
     
  2. Dragonking

    Dragonking Well-Known Member

    Tham gia:
    24/4/06
    Bài viết:
    999
    Thích đã nhận:
    469
    Đến từ:
    HCMC
    ACC vip tải nhanh quá 3.8MB/s :D:laughing::laughing::laughing:
     
    GHT thích bài này.
  3. GHT

    GHT Thích ăn phở

    Tham gia:
    18/1/06
    Bài viết:
    4,669
    Thích đã nhận:
    20,294
    Đến từ:
    Việt Nam

    Under The Sea - Thiên Đường Dưới Đáy Biển
    [​IMG]
    [​IMG]
    [​IMG]
    [​IMG]
    [​IMG]


    Tập phim với những cảnh quay tuyệt đẹp, xứng đáng với tên gọi thiên đường đáy biển. mang lại rất nhiều kiền thức quý báu.hé lộ bao bí ẩn của đại dương

    Download:
    Mã:
    [URL="http://www.mediafire.com/?b9jb8yyojfogvsk"]http://www.mediafire.com/?b9jb8yyojfogvsk[/URL]
    [URL="http://www.mediafire.com/?9ze2kioz6jraxof"]http://www.mediafire.com/?9ze2kioz6jraxof[/URL]
    [URL="http://www.mediafire.com/?a4ju3w7od0ciab2"]http://www.mediafire.com/?a4ju3w7od0ciab2[/URL]
    [URL="http://www.mediafire.com/?12rx4ynyrnr2roo"]http://www.mediafire.com/?12rx4ynyrnr2roo[/URL]
    [URL="http://www.mediafire.com/?6y4b4w3godxrdcq"]http://www.mediafire.com/?6y4b4w3godxrdcq[/URL]
    [URL="http://www.mediafire.com/?4gness2h1g3v0g7"]http://www.mediafire.com/?4gness2h1g3v0g7[/URL]
    [URL="http://www.mediafire.com/?5l1ioo5cnj14ohd"]http://www.mediafire.com/?5l1ioo5cnj14ohd[/URL]
    [URL="http://www.mediafire.com/?ds4pd9c55672xid"]http://www.mediafire.com/?ds4pd9c55672xid[/URL]
    [URL="http://www.mediafire.com/?2s2fclc1izk4jfj"]http://www.mediafire.com/?2s2fclc1izk4jfj[/URL]
    [URL="http://www.mediafire.com/?5d38mbwhrvsyhjh"]http://www.mediafire.com/?5d38mbwhrvsyhjh[/URL]
    [URL="http://www.mediafire.com/?d9cq340gqf607o4"]http://www.mediafire.com/?d9cq340gqf607o4[/URL]
    [URL="http://www.mediafire.com/?z49vg6dsw8s82ux"]http://www.mediafire.com/?z49vg6dsw8s82ux[/URL]
    [URL="http://www.mediafire.com/?vxm127nn8xqg9d1"]http://www.mediafire.com/?vxm127nn8xqg9d1[/URL]
    [URL="http://www.mediafire.com/?061anpai2axlc18"]http://www.mediafire.com/?061anpai2axlc18[/URL]
    [URL="http://www.mediafire.com/?wum7lefe4aqk8ab"]http://www.mediafire.com/?wum7lefe4aqk8ab[/URL]
    [URL="http://www.mediafire.com/?ki42vx6qr8b4t79"]http://www.mediafire.com/?ki42vx6qr8b4t79[/URL]
    [URL="http://www.mediafire.com/?vbufuwbfcuzs53t"]http://www.mediafire.com/?vbufuwbfcuzs53t[/URL]
    [URL="http://www.mediafire.com/?d49f951xw4rssil"]http://www.mediafire.com/?d49f951xw4rssil[/URL]
    [URL="http://www.mediafire.com/?ypn8y5nqqhv81vh"]http://www.mediafire.com/?ypn8y5nqqhv81vh[/URL]
    [URL="http://www.mediafire.com/?u1saathgeur18zt"]http://www.mediafire.com/?u1saathgeur18zt[/URL]

    Pas: g4tvn.com
     
  4. GHT

    GHT Thích ăn phở

    Tham gia:
    18/1/06
    Bài viết:
    4,669
    Thích đã nhận:
    20,294
    Đến từ:
    Việt Nam
    Coral Seas
    [​IMG]

    Download:
    Mã:
    http://www.mediafire.com/?ol3mur0aj0b8x
    Pas: g4tvn.com
     
    Trung_kimma, maotien and Dragonking like this.
  5. GHT

    GHT Thích ăn phở

    Tham gia:
    18/1/06
    Bài viết:
    4,669
    Thích đã nhận:
    20,294
    Đến từ:
    Việt Nam
    IMAX 1994
    INTO THE DEEP

    [​IMG]
    Quay về với biển sâu, cảnh hùng tráng của rừng tảo bẹ khổng lồ, những chu kì sinh sản của đàn mực ống, cách sinh hoạt lạ lùng của sư tử biển, quá trình lột xác của tôm hùm....
    [​IMG]
    [​IMG]
    [​IMG]
    Download:
    Mã:
    http://www.mediafire.com/?v941w3k2qz6ad
    Pas: g4tvn.com
     
  6. lpcuong

    lpcuong Well-Known Member

    Tham gia:
    22/2/07
    Bài viết:
    1,636
    Thích đã nhận:
    972
    Đến từ:
    Hà Nội
    Em ở HÀ Nội, cụ chỉ chỗ nào em ra copy cho tiện, ngồi chờ download lâu lắm ợ!
     
    Trung_kimma thích bài này.
  7. musashi

    musashi Well-Known Member

    Tham gia:
    16/1/10
    Bài viết:
    263
    Thích đã nhận:
    114
    Đến từ:
    hà nội
    em dowload được 1 bộ rồi, sắp xong bộ thứ 2, bác mà biếng thì đưa HDD e copy cho....hehehe
     
  8. lpcuong

    lpcuong Well-Known Member

    Tham gia:
    22/2/07
    Bài viết:
    1,636
    Thích đã nhận:
    972
    Đến từ:
    Hà Nội
    Bác đao được cái này chừa?
    IMAX 1995 The Living Sea 1440x1080
    Sự Sống Của Biển Cả (ABV)

    Được thì cho em xin!
     
  9. Rybicka

    Rybicka Well-Known Member

    Tham gia:
    11/5/09
    Bài viết:
    164
    Thích đã nhận:
    96
    Đến từ:
    Xa biển
    có khi phải bán xung quỹ anh ạ, đừng cho không......... :d
     
  10. canuc

    canuc Super Moderators

    Tham gia:
    28/5/08
    Bài viết:
    832
    Thích đã nhận:
    429
    Đến từ:
    Hà nội - Đà nẵng
    bác nào máu xuống văn quán mời trà đá e chỉ chổ cho copy free gồm những bộ sau:
    1.sắc màu san hô - discovery channel equator reefs of riches-2009: 3.28gb
    2.dưới đáy biển sâu - Deep sea - 2006: 2.21GB
    3.Thiên đường dưới lòng đại dương - imax under the sea - 2009:1.93gb
    4.khám phá loài cá mập - sharkwater - 2006: 4.37gb
    5.đại dương xanh thẳm - the big blue - 2009: 3.61gb
    Tất cả đều là phim chuẩn HD 1080p dts 5.1 của điện ảnh mỹ
     
    Trung_kimma, GHT and musashi like this.
  11. axetylen

    axetylen axetylen

    Tham gia:
    9/3/10
    Bài viết:
    507
    Thích đã nhận:
    323
    Đến từ:
    Hà Nội
    anh ơi, ở đâu đấy ? mai em cầm ổ cứng đến nhé :D:D
     
  12. musashi

    musashi Well-Known Member

    Tham gia:
    16/1/10
    Bài viết:
    263
    Thích đã nhận:
    114
    Đến từ:
    hà nội
    em đăng ký đầu tiên nhé......vừa được trà đá vừa được phim, lại cả san hô vụn nữa, không ai tranh được với em đâu.:laughing:

    ---------- Post added at 08:52 AM ---------- Previous post was at 08:50 AM ----------

    cái này e dowload được rồi...để e copy cho bác.
     
  13. PARASUCO

    PARASUCO Well-Known Member

    Tham gia:
    2/7/07
    Bài viết:
    1,132
    Thích đã nhận:
    332
    Đến từ:
    Hà Nội
    Có phụ đề việt ngữ không anh ơi. ?
     
  14. canuc

    canuc Super Moderators

    Tham gia:
    28/5/08
    Bài viết:
    832
    Thích đã nhận:
    429
    Đến từ:
    Hà nội - Đà nẵng
    có bộ có bộ không. muốn có vào subscene.com có mà đầy
     
    Last edited: 1/10/11
  15. Trung_kimma

    Trung_kimma Thành viên uy tín

    Tham gia:
    20/1/10
    Bài viết:
    748
    Thích đã nhận:
    547
    Đến từ:
    HAN
    Bác canuc ơi đầu DVD thông thường có xem được ko bác,em thấy ghi là chuẩn HD mà.

    ---------- Post added at 06:06 PM ---------- Previous post was at 06:02 PM ----------

    Bác có bắn được ra đĩa ko,ở nhà em cũng có mấy bộ như kiểu này,lâu quá ko xem ko biết có giống nhau ko nữa.

    ---------- Post added at 06:08 PM ---------- Previous post was at 06:06 PM ----------

    Lần trước em mua mấy đĩa như này ở của hàng trên phố hàng Bạc,mai em lại lượn qua.
     
  16. GHT

    GHT Thích ăn phở

    Tham gia:
    18/1/06
    Bài viết:
    4,669
    Thích đã nhận:
    20,294
    Đến từ:
    Việt Nam
    Một số Bác kéo về rồi mà file bị nến nên không biết mở kiểu gì nên các Bác vào link dưới để kéo phần mềm về giải nén file nhé.
    7-Zip (32-bit)
    Còn không đọc được MKV thì các Bác kéo cái KMPlayer về cài và xem ạ.
     
  17. lpcuong

    lpcuong Well-Known Member

    Tham gia:
    22/2/07
    Bài viết:
    1,636
    Thích đã nhận:
    972
    Đến từ:
    Hà Nội
    Em dùng cái này mới nối file được ợ:
    http://aa.wrs.yahoo.com/_ylt=A0oGkmOaSYROJDcA7sFrUwx.;_ylu=X3oDMTByZ3RtN3J1BHNlYwNzcgRwb3MDMgRjb2xvA3NrMQR2dGlkAw--/SIG=13ssddd2m/EXP=1317321242/**http%3a//www.download.com.vn/data%2bfile/more%2bdata%2bfile/8920_001-file-joiner-and-splitter-4-0-4-2.aspx
     
  18. GHT

    GHT Thích ăn phở

    Tham gia:
    18/1/06
    Bài viết:
    4,669
    Thích đã nhận:
    20,294
    Đến từ:
    Việt Nam
    Dùng winrar hoặc 7-zip đơn giản hơn nhiều mà giải nén luôn cơ.
     
  19. GHT

    GHT Thích ăn phở

    Tham gia:
    18/1/06
    Bài viết:
    4,669
    Thích đã nhận:
    20,294
    Đến từ:
    Việt Nam
    Ocean.Wonderland.2003.720p.BluRay.x264.DTS-HDLCJ

    (PĐVN)


    [​IMG]

    Mã:
    General
    
    Complete name                    : Ocean.Wonderland.2003.720p.BluRay.x264.DTS-HDLCJ Uploaded by PUB.VN.mkv
    Format                           : Matroska
    Format version                   : Version 2
    File size                        : 2.19 GiB
    Duration                         : 40mn 39s
    Overall bit rate                 : 7 694 Kbps
    Encoded date                     : UTC 2011-10-20 12:11:57
    Writing application              : mkvmerge v5.0.1 ('Es ist Sommer') built on Oct  9 2011 11:55:43
    Writing library                  : libebml v1.2.2 + libmatroska v1.3.0
    
    Video
    ID                               : 1
    Format                           : AVC
    Format/Info                      : Advanced Video Codec
    Format profile                   : High@L4.1
    Format settings, CABAC           : Yes
    Format settings, ReFrames        : 5 frames
    Format settings, GOP             : M=6, N=50
    Muxing mode                      : Header stripping
    Codec ID                         : V_MPEG4/ISO/AVC
    Duration                         : 40mn 39s
    Bit rate                         : 6 186 Kbps
    Width                            : 1 280 pixels
    Height                           : 720 pixels
    Display aspect ratio             : 16:9
    Frame rate                       : 23.976 fps
    Color space                      : YUV
    Chroma subsampling               : 4:2:0
    Bit depth                        : 8 bits
    Scan type                        : Progressive
    Bits/(Pixel*Frame)               : 0.280
    Stream size                      : 1.71 GiB (78%)
    Title                            : video
    Writing library                  : x264 core 115 r2008 4c552d8
    Encoding settings                : cabac=1 / ref=5 / deblock=1:3:0 /  analyse=0x3:0x133 / me=umh / subme=7 / psy=1 / psy_rd=1.00:0.00 /  mixed_ref=0 / me_range=16 / chroma_me=1 / trellis=1 / 8x8dct=1 / cqm=0 /  deadzone=21,11 / fast_pskip=0 / chroma_qp_offset=-2 / threads=12 /  sliced_threads=0 / nr=0 / decimate=1 / interlaced=0 / bluray_compat=0 /  constrained_intra=0 / bframes=5 / b_pyramid=2 / b_adapt=1 / b_bias=0 /  direct=1 / weightb=1 / open_gop=0 / weightp=2 / keyint=250 /  keyint_min=23 / scenecut=40 / intra_refresh=0 / rc_lookahead=40 /  rc=2pass / mbtree=1 / bitrate=6186 / ratetol=1.0 / qcomp=0.60 / qpmin=10  / qpmax=51 / qpstep=4 / cplxblur=20.0 / qblur=0.5 / ip_ratio=1.40 /  aq=1:1.00
    Language                         : English
    
    Audio
    ID                               : 2
    Format                           : DTS
    Format/Info                      : Digital Theater Systems
    Muxing mode                      : Header stripping
    Codec ID                         : A_DTS
    Duration                         : 40mn 39s
    Bit rate mode                    : Constant
    Bit rate                         : 1 510 Kbps
    Channel(s)                       : 6 channels
    Channel positions                : Front: L C R, Side: L R, LFE
    Sampling rate                    : 48.0 KHz
    Bit depth                        : 24 bits
    Compression mode                 : Lossy
    Stream size                      : 439 MiB (20%)
    Title                            : audio
    Language                         : English
    
    Text
    ID                               : 3
    Format                           : UTF-8
    Codec ID                         : S_TEXT/UTF8
    Codec ID/Info                    : UTF-8 Plain Text
    Language                         : [COLOR=darkred][B]Vietnamese[/B][/COLOR]
    
    
    ACC vip: gianghongtu76@yahoo.com
    Pass: 123456

    ---------- Bài viết thêm vào lúc 08:17 PM ---------- Bài viết trước được viết vào lúc 08:12 PM ----------


    Under The Sea 3D (2009) 720p BluRay x264

    Đại Dương Sâu Thẳm (PĐVN)


    IMDb : 7,5/10
    [​IMG]

    Mã:
    General
    
    Complete name                    : Under The Sea 3D (2009) 720p BluRay x264 Uploaded by PUB.VN.mkv
    Format                           : Matroska
    Format version                   : Version 2
    File size                        : 2.05 GiB
    Duration                         : 40mn 59s
    Overall bit rate                 : 7 171 Kbps
    Movie name                       : Kung.Fu.Hustle.2004.720p.BluRay.DTS.x264-ESiR
    Encoded date                     : UTC 2011-09-09 17:19:56
    Writing application              : mkvmerge v4.9.1 ('Ich will') built on Jul 11 2011 23:53:15
    Writing library                  : libebml v1.2.1 + libmatroska v1.1.1
    
    Video
    ID                               : 1
    Format                           : AVC
    Format/Info                      : Advanced Video Codec
    Format profile                   : High@L4.1
    Format settings, CABAC           : Yes
    Format settings, ReFrames        : 3 frames
    Format settings, GOP             : M=1, N=24
    Muxing mode                      : Header stripping
    Codec ID                         : V_MPEG4/ISO/AVC
    Duration                         : 40mn 59s
    Bit rate mode                    : Variable
    Bit rate                         : 6 388 Kbps
    Maximum bit rate                 : 40.0 Mbps
    Width                            : 1 280 pixels
    Height                           : 720 pixels
    Display aspect ratio             : 16:9
    Frame rate                       : 23.976 fps
    Color space                      : YUV
    Chroma subsampling               : 4:2:0
    Bit depth                        : 8 bits
    Scan type                        : Progressive
    Bits/(Pixel*Frame)               : 0.289
    Stream size                      : 1.83 GiB (89%)
    Title                            : IMAX.Under.the.Sea.2009.BDRip.720p.-VoLoNa
    Writing library                  : VoLoNa by CMEGroup
    Encoding settings                : Encoded / optimized / using / HQ / profiles / at / CMEGroup
    Language                         : English
    
    Audio
    ID                               : 2
    Format                           : AC-3
    Format/Info                      : Audio Coding 3
    Mode extension                   : CM (complete main)
    Muxing mode                      : Header stripping
    Codec ID                         : A_AC3
    Duration                         : 40mn 59s
    Bit rate mode                    : Constant
    Bit rate                         : 640 Kbps
    Channel(s)                       : 6 channels
    Channel positions                : Front: L C R, Side: L R, LFE
    Sampling rate                    : 48.0 KHz
    Bit depth                        : 16 bits
    Compression mode                 : Lossy
    Stream size                      : 188 MiB (9%)
    Title                            : English
    Language                         : English
    
    Text
    ID                               : 3
    Format                           : UTF-8
    Codec ID                         : S_TEXT/UTF8
    Codec ID/Info                    : UTF-8 Plain Text
    Language                         :[COLOR=darkred][B] Vietnamese[/B][/COLOR]
    
    
    [​IMG]

    [​IMG]

    [​IMG]

    [​IMG]

    [​IMG]

    [​IMG]

    http://www.fshare.vn/file/T24MRFXNXT/
    ACC gianghongtu76@yahoo.com
    Pass ACC: 123456
    Pass unrar: pub.vn
     
    VNGuide, lpcuong, maotien and 2 others like this.

Chia sẻ trang này